Search This Blog

Dhadhak 2018 x264 720p Esub BluRay Hindi GD @ GOPISAHI


Format                         : Matroska
Format version                 : Version 4 / Version 2
File size                      : 799 MiB
Duration                       : 2 h 17 min
Overall bit rate               : 810 kb/s
Movie name                     : Dhadhak 2018 GOPISAHI

Video
Format                         : AVC
Format/Info                    : Advanced Video Codec
Codec ID                       : V_MPEG4/ISO/AVC
Duration                       : 2 h 17 min
Bit rate                       : 699 kb/s
Width                          : 1 280 pixels
Height                         : 528 pixels
Display aspect ratio           : 2.40:1
Frame rate mode                : Constant
Frame rate                     : 24.000 FPS
Color space                    : YUV
Chroma subsampling             : 4:2:0
Bit depth                      : 8 bits
Scan type                      : Progressive
Bits/(Pixel*Frame)             : 0.043
Stream size                    : 689 MiB (86%)
Title                          : GOPISAHI
Writing library                : x264 core 157 r2935 545de2f

Audio
Format                         : AAC
Duration                       : 2 h 17 min
Bit rate                       : 96.0 kb/s
Channel(s)                     : 2 channels
Channel positions              : Front: L R
Sampling rate                  : 48.0 kHz
Frame rate                     : 46.875 FPS (1024 SPF)
Compression mode               : Lossy
Delay relative to video        : -21 ms
Stream size                    : 93.5 MiB (12%)
Title                          : GOPISAHI
Language                       : Hindi

Text
Language                       : English

Menu
00:00:00.000                   : en:Chapter 1
00:15:20.750                   : en:Chapter 2
00:20:01.542                   : en:Chapter 3
00:22:35.417                   : en:Chapter 4
00:30:32.167                   : en:Chapter 5
00:38:53.917                   : en:Chapter 6
00:43:20.000                   : en:Chapter 7
00:47:48.292                   : en:Chapter 8
00:51:51.000                   : en:Chapter 9
00:52:33.125                   : en:Chapter 10
00:55:06.667                   : en:Chapter 11
00:59:19.167                   : en:Chapter 12
01:01:46.042                   : en:Chapter 13
01:03:42.375                   : en:Chapter 14
01:11:36.375                   : en:Chapter 15
01:15:09.083                   : en:Chapter 16
01:16:51.167                   : en:Chapter 17
01:20:13.417                   : en:Chapter 18
01:25:04.250                   : en:Chapter 19
01:31:00.083                   : en:Chapter 20
01:36:41.375                   : en:Chapter 21
01:40:48.292                   : en:Chapter 22
01:48:37.667                   : en:Chapter 23
01:51:50.500                   : en:Chapter 24
01:55:39.792                   : en:Chapter 25
01:59:33.542                   : en:Chapter 26
02:02:07.792                   : en:Chapter 27
02:12:07.042                   : en:Chapter 28











Post a Comment

0 Comments