Search This Blog

Luke Cage 2016 S01 720p Dual Audio HINDI ENGLISH GOPISAHI

Format                         : Matroska
Format version                 : Version 4 / Version 2
File size                      : 290 MiB
Duration                       : 46 min 19 s
Overall bit rate               : 874 kb/s

Video
Format                         : AVC
Format/Info                    : Advanced Video Codec
Codec ID                       : V_MPEG4/ISO/AVC
Duration                       : 45 min 14 s
Bit rate                       : 699 kb/s
Width                          : 1 280 pixels
Height                         : 720 pixels
Display aspect ratio           : 16:9
Frame rate mode                : Constant
Frame rate                     : 23.976 (24000/1001) FPS
Color space                    : YUV
Chroma subsampling             : 4:2:0
Bit depth                      : 8 bits
Scan type                      : Progressive
Bits/(Pixel*Frame)             : 0.032
Stream size                    : 226 MiB (78%)
Title                          : GOPISAHI
Writing library                : x264 core 157 r2935 545de2f

Audio #1
Format                         : AAC
Duration                       : 46 min 19 s
Bit rate                       : 96.0 kb/s
Channel(s)                     : 2 channels
Channel positions              : Front: L R
Sampling rate                  : 48.0 kHz
Frame rate                     : 46.875 FPS (1024 SPF)
Compression mode               : Lossy
Delay relative to video        : -21 ms
Stream size                    : 31.3 MiB (11%)
Title                          : GOPISAHI
Language                       : Hindi

Audio #2
Format                         : AAC
Duration                       : 45 min 14 s
Bit rate                       : 96.0 kb/s
Channel(s)                     : 2 channels
Channel positions              : Front: L R
Sampling rate                  : 48.0 kHz
Frame rate                     : 46.875 FPS (1024 SPF)
Compression mode               : Lossy
Delay relative to video        : 9 ms
Stream size                    : 31.2 MiB (11%)
Title                          : GOPISAHI
Language                       : English



 Luke Cage 2016 S01 720p Dual Audio HINDI ENGLISH GOPISAHI
  • Luke Cage 2016 S01 E013 GOPISAHI.mkv (289.6 MB)
  • Luke Cage 2016 S01 E010 GOPISAHI.mkv (303.1 MB)
  • Luke Cage 2016 S01 E08 GOPISAHI.mkv (306.6 MB)
  • Luke Cage 2016 S01 E011 GOPISAHI.mkv (324.0 MB)
  • Luke Cage 2016 S01 E07 GOPISAHI.mkv (327.3 MB)
  • Luke Cage 2016 S01 E05 GOPISAHI.mkv (327.9 MB)
  • Luke Cage 2016 S01 E04 GOPISAHI.mkv (333.0 MB)
  • Luke Cage 2016 S01 E06 GOPISAHI.mkv (337.3 MB)
  • Luke Cage 2016 S01 E01 GOPISAHI.mkv (345.9 MB)
  • Luke Cage 2016 S01 E03 GOPISAHI.mkv (358.5 MB)
  • Luke Cage 2016 S01 E02 GOPISAHI.mkv (374.6 MB)
  • Luke Cage 2016 S01 E012 GOPISAHI.mkv (393.6 MB)
  • Luke Cage 2016 S01 E09 GOPISAHI.mkv (415.8 MB)

TOTAL SIZE 4.3 GB



Post a Comment

0 Comments