Search This Blog

Piranha Ii -The Spawning 1981 x264 720p Esub BluRay Dual Audio English Hindi GOPISAHI

Format                         : Matroska
Format version                 : Version 4 / Version 2
File size                      : 606 MiB
Duration                       : 1 h 34 min
Overall bit rate               : 895 kb/s

Video
Format                         : AVC
Format/Info                    : Advanced Video Codec
Codec ID                       : V_MPEG4/ISO/AVC
Duration                       : 1 h 34 min
Bit rate                       : 699 kb/s
Width                          : 1 264 pixels
Height                         : 672 pixels
Display aspect ratio           : 1.881
Frame rate mode                : Constant
Frame rate                     : 23.976 (24000/1001) FPS
Color space                    : YUV
Chroma subsampling             : 4:2:0
Bit depth                      : 8 bits
Scan type                      : Progressive
Bits/(Pixel*Frame)             : 0.034
Stream size                    : 473 MiB (78%)
Title                          : GOPISAHI
Writing library                : x264 core 157 r2935 545de2f

Audio #1
Format                         : AAC
Duration                       : 1 h 34 min
Bit rate                       : 96.0 kb/s
Channel(s)                     : 2 channels
Channel positions              : Front: L R
Sampling rate                  : 48.0 kHz
Frame rate                     : 46.875 FPS (1024 SPF)
Compression mode               : Lossy
Delay relative to video        : -64 ms
Stream size                    : 65.3 MiB (11%)
Title                          : GOPISAHI
Language                       : Hindi

Audio #2
Format                         : AAC
Format/Info                    : Advanced Audio Codec
Duration                       : 1 h 34 min
Bit rate                       : 96.0 kb/s
Channel(s)                     : 2 channels
Channel positions              : Front: L R
Sampling rate                  : 48.0 kHz
Frame rate                     : 46.875 FPS (1024 SPF)
Compression mode               : Lossy
Delay relative to video        : -64 ms
Stream size                    : 65.2 MiB (11%)
Title                          : GOPISAHI
Language                       : English

Text
Language                       : English





TORRENT

MAGNET

https://drive.google.com/uc?id=1F_Cd9gx2qgKkM5aleaR5oBMAnOCR5FaK&export=download

http://www.mediafire.com/file/g963akecy1fogj0/Piranh_20198_20GOPISAHI.mkv.zip/file

https://megaup.net/blcD/Piranha_Ii_-The_Spawning_1981_x264_720p_Esub_BluRay_Dual_Audio_English_Hindi_GOPISAHI.mkv

https://uploadfiles.pw/2a75e1c20b44a70a

https://uptobox.com/vu1v4d64cvit

https://www.oboom.com/BLZSXN8Y

860 MB 720P HINDI

201 MB HINDI

Post a Comment

0 Comments