Search This Blog

After Earth 2013 x264 720p Esub BluRay 6.0 Dual Audio English Hindi GOPISAHI


Format                         : Matroska
Format version                 : Version 4 / Version 2
File size                      : 928 MiB
Duration                       : 1 h 40 min
Overall bit rate               : 1 297 kb/s
Movie name                     : After Earth 2013 GOPISAHI

Video
Format                         : AVC
Format/Info                    : Advanced Video Codec
Codec ID                       : V_MPEG4/ISO/AVC
Duration                       : 1 h 40 min
Bit rate                       : 899 kb/s
Width                          : 1 280 pixels
Height                         : 528 pixels
Display aspect ratio           : 2.40:1
Frame rate mode                : Constant
Frame rate                     : 23.976 (24000/1001) FPS
Color space                    : YUV
Chroma subsampling             : 4:2:0
Bit depth                      : 8 bits
Scan type                      : Progressive
Bits/(Pixel*Frame)             : 0.055
Stream size                    : 643 MiB (69%)
Title                          : GOPISAHI
Writing library                : x264 core 157 r2935 545de2f

Audio #1
Format                         : AAC
Duration                       : 1 h 40 min
Bit rate                       : 192 kb/s
Channel(s)                     : 6 channels
Channel positions              : Front: L C R, Side: C, Back: L R
Sampling rate                  : 48.0 kHz
Frame rate                     : 46.875 FPS (1024 SPF)
Compression mode               : Lossy
Delay relative to video        : -21 ms
Stream size                    : 137 MiB (15%)
Title                          : GOPISAHI
Language                       : Hindi

Audio #2
Format                         : AAC
Duration                       : 1 h 40 min
Bit rate                       : 192 kb/s
Channel(s)                     : 6 channels
Channel positions              : Front: L C R, Side: C, Back: L R
Sampling rate                  : 48.0 kHz
Frame rate                     : 46.875 FPS (1024 SPF)
Compression mode               : Lossy
Delay relative to video        : -21 ms
Stream size                    : 137 MiB (15%)
Title                          : GOPISAHI
Language                       : English

Text #1
Format                         : PGS
Muxing mode                    : zlib
Codec ID                       : S_HDMV/PGS
Codec ID/Info                  : Picture based subtitle format used on BDs/HD-DVDs
Duration                       : 1 h 31 min
Count of elements              : 1274
Stream size                    : 8.59 MiB (1%)
Language                       : Hindi

Text #2
Format                         : PGS
Muxing mode                    : zlib
Codec ID                       : S_HDMV/PGS
Codec ID/Info                  : Picture based subtitle format used on BDs/HD-DVDs
Duration                       : 1 h 31 min
Stream size                    : 10.2 MiB (1%)
Title                          : GOPISAHI
Language                       : English

Menu #1
00:00:00.000                   : en:Chapter 1
00:08:52.699                   : en:Chapter 2
00:15:36.394                   : en:Chapter 3
00:21:34.794                   : en:Chapter 4
00:30:50.557                   : en:Chapter 5
00:36:45.954                   : en:Chapter 6
00:41:14.514                   : en:Chapter 7
00:47:06.073                   : en:Chapter 8
00:52:36.320                   : en:Chapter 9
00:59:48.627                   : en:Chapter 10
01:05:25.797                   : en:Chapter 11
01:11:10.349                   : en:Chapter 12
01:15:47.334                   : en:Chapter 13
01:20:17.688                   : en:Chapter 14
01:24:38.865                   : en:Chapter 15
01:29:57.392                   : en:Chapter 16

Menu #2
00:00:00.000                   : en:Chapter 01
00:08:52.699                   : en:Chapter 02
00:15:36.394                   : en:Chapter 03
00:21:34.793                   : en:Chapter 04
00:30:50.557                   : en:Chapter 05
00:36:45.954                   : en:Chapter 06
00:41:14.430                   : en:Chapter 07
00:47:06.073                   : en:Chapter 08
00:52:36.320                   : en:Chapter 09
00:59:48.585                   : en:Chapter 10
01:05:25.797                   : en:Chapter 11
01:11:10.183                   : en:Chapter 12
01:15:47.334                   : en:Chapter 13
01:20:17.688                   : en:Chapter 14
01:24:38.782                   : en:Chapter 15
01:29:57.392                   : en:Chapter 16





Post a Comment

0 Comments