Search This Blog

American Pie Presents Band Camp 2005 x264 720p Esub Dual Audio English Hindi GOPISAHI

Format                         : Matroska
Format version                 : Version 4 / Version 2
File size                      : 582 MiB
Duration                       : 1 h 31 min
Overall bit rate               : 894 kb/s
Movie name                     : American Pie Presents Band Camp 2005 GOPISAHI

Video
Format                         : AVC
Format/Info                    : Advanced Video Codec
Codec ID                       : V_MPEG4/ISO/AVC
Duration                       : 1 h 31 min
Bit rate                       : 699 kb/s
Width                          : 1 280 pixels
Height                         : 720 pixels
Display aspect ratio           : 16:9
Frame rate mode                : Constant
Frame rate                     : 23.976 (24000/1001) FPS
Color space                    : YUV
Chroma subsampling             : 4:2:0
Bit depth                      : 8 bits
Scan type                      : Progressive
Bits/(Pixel*Frame)             : 0.032
Stream size                    : 455 MiB (78%)
Title                          : GOPISAHI
Writing library                : x264 core 157 r2935 545de2f

Audio #1
Format                         : AAC
Duration                       : 1 h 31 min
Bit rate                       : 96.0 kb/s
Channel(s)                     : 2 channels
Channel positions              : Front: L R
Sampling rate                  : 48.0 kHz
Frame rate                     : 46.875 FPS (1024 SPF)
Compression mode               : Lossy
Delay relative to video        : 478 ms
Stream size                    : 62.9 MiB (11%)
Title                          : GOPISAHI
Language                       : Hindi

Audio #2
Format                         : AAC
Duration                       : 1 h 31 min
Bit rate                       : 96.0 kb/s
Channel(s)                     : 2 channels
Channel positions              : Front: L R
Sampling rate                  : 48.0 kHz
Frame rate                     : 46.875 FPS (1024 SPF)
Compression mode               : Lossy
Delay relative to video        : -12 ms
Stream size                    : 62.8 MiB (11%)
Title                          : GOPISAHI
Language                       : English

Text
Language                       : English

Menu
00:00:00.000                   : en:Misconduct (Main Titles)
00:07:06.092                   : en:Perfect Punishment
00:11:09.043                   : en:The M.A.C.R.O.
00:19:47.019                   : en:Striptease
00:24:50.030                   : en:Stifler Vision
00:32:14.015                   : en:Wake Up Call
00:38:08.161                   : en:Battle Royale
00:41:19.060                   : en:Sensitive Stomach
00:48:29.115                   : en:Night Vision
00:52:13.005                   : en:Overstimulated Times
00:56:02.109                   : en:Fierce Competition
01:00:49.020                   : en:Love Music
01:05:38.101                   : en:Off the Bandwagon
01:07:44.018                   : en:"Bandeez Gone Wild"
01:13:06.132                   : en:Gag Reflex
01:17:20.052                   : en:For Elyse
01:22:30.112                   : en:Piper at the Gates
01:27:29.077                   : en:End Titles









Post a Comment

0 Comments