Search This Blog

Angels & Demons 2009 Extended Cut x264 720p Esub BluRay 6.0 Dual Audio English Hindi GOPISAHI


CODER  GD @ GOPISAHI

Format                         : Matroska
Format version                 : Version 4 / Version 2
File size                      : 1.35 GiB
Duration                       : 2 h 26 min
Overall bit rate               : 1 320 kb/s
Movie name                     : Angels & Demons 2009 GOPISAHI

Video
Format                         : AVC
Format/Info                    : Advanced Video Codec
Codec ID                       : V_MPEG4/ISO/AVC
Duration                       : 2 h 26 min
Bit rate                       : 899 kb/s
Width                          : 1 280 pixels
Height                         : 528 pixels
Display aspect ratio           : 2.40:1
Frame rate mode                : Constant
Frame rate                     : 23.976 (24000/1001) FPS
Color space                    : YUV
Chroma subsampling             : 4:2:0
Bit depth                      : 8 bits
Scan type                      : Progressive
Bits/(Pixel*Frame)             : 0.055
Stream size                    : 940 MiB (68%)
Title                          : GOPISAHI
Writing library                : x264 core 157 r2935 545de2f

Audio #1
Format                         : AAC
Duration                       : 2 h 26 min
Bit rate                       : 192 kb/s
Channel(s)                     : 6 channels
Channel positions              : Front: L C R, Side: C, Back: L R
Sampling rate                  : 48.0 kHz
Frame rate                     : 46.875 FPS (1024 SPF)
Compression mode               : Lossy
Delay relative to video        : -21 ms
Stream size                    : 201 MiB (15%)
Title                          : GOPISAHI
Language                       : Hindi

Audio #2
Format                         : AAC
Duration                       : 2 h 26 min
Bit rate                       : 192 kb/s
Channel(s)                     : 6 channels
Channel positions              : Front: L C R, Side: C, Back: L R
Sampling rate                  : 48.0 kHz
Frame rate                     : 46.875 FPS (1024 SPF)
Compression mode               : Lossy
Delay relative to video        : -21 ms
Stream size                    : 201 MiB (15%)
Title                          : GOPISAHI
Language                       : English

Text #1
Stream size                    : 26.7 MiB (2%)
Title                          : GOPISAHI
Language                       : Hindi

Text #2
Format                         : PGS
Count of elements              : 2762
Stream size                    : 28.9 MiB (2%)
Title                          : GOPISAHI
Language                       : English

Text #3
Format                         : PGS
Stream size                    : 22.1 MiB (2%)
Title                          : Eng BD-PGS-SDH
Language                       : English

Text #4
Format                         : PGS
Stream size                    : 1.17 MiB (0%)
Title                          : GOPISAHI
Language                       : Tamil

Text #5
Format                         : PGS
Title                          : GOPISAHI
Language                       : Telugu

Menu
00:00:00.000                   : en:Chapter 1
00:09:30.987                   : en:Chapter 2
00:19:08.356                   : en:Chapter 3
00:27:16.260                   : en:Chapter 4
00:34:22.811                   : en:Chapter 5
00:46:14.605                   : en:Chapter 6
00:55:16.855                   : en:Chapter 7
01:04:36.206                   : en:Chapter 8
01:14:51.904                   : en:Chapter 9
01:22:50.966                   : en:Chapter 10
01:32:53.693                   : en:Chapter 11
01:44:11.662                   : en:Chapter 12
01:55:16.827                   : en:Chapter 13
02:05:37.822                   : en:Chapter 14
02:10:38.581                   : en:Chapter 15
02:15:06.432                   : en:Chapter 16






Post a Comment

0 Comments