Search This Blog

The Hate U Give 2018 x264 720p Esub BluRay 6.0 Dual Audio English Hindi GOPISAHI



Format                         : Matroska
Format version                 : Version 4 / Version 2
File size                      : 1.01 GiB
Duration                       : 2 h 13 min
Overall bit rate               : 1 086 kb/s
Movie name                     : The Hate U Give 2018 GOPISAHI

Video
Format                         : AVC
Format/Info                    : Advanced Video Codec
Codec ID                       : V_MPEG4/ISO/AVC
Duration                       : 2 h 13 min
Bit rate                       : 699 kb/s
Width                          : 1 280 pixels
Height                         : 528 pixels
Display aspect ratio           : 2.40:1
Frame rate mode                : Constant
Frame rate                     : 23.976 (24000/1001) FPS
Color space                    : YUV
Chroma subsampling             : 4:2:0
Bit depth                      : 8 bits
Scan type                      : Progressive
Bits/(Pixel*Frame)             : 0.043
Stream size                    : 665 MiB (64%)
Title                          : GOPISAHI
Writing library                : x264 core 157 r2935 545de2f

Audio #1
Format                         : AAC
Duration                       : 2 h 13 min
Bit rate                       : 192 kb/s
Channel(s)                     : 6 channels
Channel positions              : Front: L C R, Side: C, Back: L R
Sampling rate                  : 48.0 kHz
Frame rate                     : 46.875 FPS (1024 SPF)
Compression mode               : Lossy
Delay relative to video        : -21 ms
Stream size                    : 183 MiB (18%)
Title                          : GOPISAHI
Language                       : Hindi

Audio #2
Format                         : AAC
Duration                       : 2 h 13 min
Bit rate                       : 192 kb/s
Channel(s)                     : 6 channels
Channel positions              : Front: L C R, Side: C, Back: L R
Sampling rate                  : 48.0 kHz
Frame rate                     : 46.875 FPS (1024 SPF)
Compression mode               : Lossy
Delay relative to video        : 9 ms
Stream size                    : 183 MiB (18%)
Title                          : GOPISAHI
Language                       : English

Text #1
ID                             : 4
Format                         : PGS
Muxing mode                    : zlib
Codec ID                       : S_HDMV/PGS
Codec ID/Info                  : Picture based subtitle format used on BDs/HD-DVDs
Duration                       : 2 h 12 min
Bit rate                       : 37.3 kb/s
Count of elements              : 3848
Stream size                    : 35.3 MiB (3%)
Title                          : GOPISAHI
Language                       : Hindi
Default                        : No
Forced                         : No

Text #2
ID                             : 5
Format                         : PGS
Muxing mode                    : zlib
Codec ID                       : S_HDMV/PGS
Codec ID/Info                  : Picture based subtitle format used on BDs/HD-DVDs
Duration                       : 2 h 12 min
Bit rate                       : 53.6 kb/s
Count of elements              : 4912
Stream size                    : 50.8 MiB (5%)
Title                          : GOPISAHI
Language                       : English
Default                        : Yes
Forced                         : No

Text #3
ID                             : 6
Format                         : UTF-8
Codec ID                       : S_TEXT/UTF8
Codec ID/Info                  : UTF-8 Plain Text
Duration                       : 2 h 12 min
Bit rate                       : 79 b/s
Count of elements              : 2457
Stream size                    : 77.5 KiB (0%)
Title                          : GOPISAHI
Language                       : English
Default                        : No
Forced                         : No






Post a Comment

1 Comments