Search This Blog

Van Helsing 2004 x264 720p Esub BluRay Dual Audio English Hindi GOPISAHI



ENCODER  =  GD @ GOPISAHI

Format                         : Matroska
Format version                 : Version 4 / Version 2
File size                      : 1.01 GiB
Duration                       : 2 h 11 min
Overall bit rate               : 1 094 kb/s
Movie name                     : Van Helsing 2004 GOPISAHI

Video
Format                         : AVC
Format/Info                    : Advanced Video Codec
Codec ID                       : V_MPEG4/ISO/AVC
Duration                       : 2 h 11 min
Bit rate                       : 899 kb/s
Width                          : 1 280 pixels
Height                         : 688 pixels
Display aspect ratio           : 1.85:1
Frame rate mode                : Constant
Frame rate                     : 23.976 (24000/1001) FPS
Color space                    : YUV
Chroma subsampling             : 4:2:0
Bit depth                      : 8 bits
Scan type                      : Progressive
Bits/(Pixel*Frame)             : 0.043
Stream size                    : 845 MiB (82%)
Title                          : GOPISAHI
Writing library                : x264 core 157 r2935 545de2f

Audio #1
Format                         : AAC
Duration                       : 2 h 11 min
Bit rate                       : 96.0 kb/s
Channel(s)                     : 2 channels
Channel positions              : Front: L R
Sampling rate                  : 48.0 kHz
Frame rate                     : 46.875 FPS (1024 SPF)
Compression mode               : Lossy
Delay relative to video        : -21 ms
Stream size                    : 90.7 MiB (9%)
Title                          : GOPISAHI
Language                       : Hindi

Audio #2
Format                         : AAC
Duration                       : 2 h 11 min
Bit rate                       : 96.0 kb/s
Channel(s)                     : 2 channels
Channel positions              : Front: L R
Sampling rate                  : 48.0 kHz
Frame rate                     : 46.875 FPS (1024 SPF)
Compression mode               : Lossy
Delay relative to video        : -1 ms
Stream size                    : 90.8 MiB (9%)
Title                          : GOPISAHI
Language                       : English

Text
Language                       : English

Menu
00:00:00.000                   : en:Chapter 1
00:07:49.219                   : en:Chapter 2
00:13:42.822                   : en:Chapter 3
00:20:14.505                   : en:Chapter 4
00:23:12.725                   : en:Chapter 5
00:33:58.036                   : en:Chapter 6
00:38:22.425                   : en:Chapter 7
00:40:34.307                   : en:Chapter 8
00:48:41.794                   : en:Chapter 9
00:53:18.904                   : en:Chapter 10
01:02:07.057                   : en:Chapter 11
01:04:31.785                   : en:Chapter 12
01:08:42.994                   : en:Chapter 13
01:09:55.149                   : en:Chapter 14
01:14:17.870                   : en:Chapter 15
01:18:55.314                   : en:Chapter 16
01:23:58.075                   : en:Chapter 17
01:29:19.104                   : en:Chapter 18
01:31:11.341                   : en:Chapter 19
01:37:31.179                   : en:Chapter 20
01:40:34.695                   : en:Chapter 21
01:43:46.554                   : en:Chapter 22
01:45:56.809                   : en:Chapter 23
01:50:21.198                   : en:Chapter 24
01:55:16.076                   : en:Chapter 25
01:57:08.563                   : en:Chapter 26
01:58:42.365                   : en:Chapter 27
02:02:01.189                   : en:Chapter 28






Post a Comment

0 Comments