Search This Blog

Alice In Wonderland 1951 x264 720p Esub BluRay Dual Audio English Hindi GOPISAHI

Alice in Wonderland (1951)


Alice stumbles into the world of Wonderland. Will she get home? Not if the Queen of Hearts has her way.

Writers:

Lewis Carroll (adaptation) (as Lewis Carrol), Winston Hibler (story) | 12 more credits »


Format                         : Matroska
Format version                 : Version 4 / Version 2
File size                      : 482 MiB
Duration                       : 1 h 15 min
Overall bit rate               : 895 kb/s
Movie name                     : Alice In Wonderland 1951 GOPISAHI

Video
Format                         : AVC
Format/Info                    : Advanced Video Codec
Format profile                 : [email protected]
Codec ID                       : V_MPEG4/ISO/AVC
Duration                       : 1 h 15 min
Bit rate                       : 699 kb/s
Width                          : 948 pixels
Height                         : 720 pixels
Display aspect ratio           : 16:9
Frame rate mode                : Constant
Frame rate                     : 23.976 (24000/1001) FPS
Color space                    : YUV
Chroma subsampling             : 4:2:0
Bit depth                      : 8 bits
Scan type                      : Progressive
Bits/(Pixel*Frame)             : 0.043
Stream size                    : 376 MiB (78%)
Title                          : GOPISAHI
Writing library                : x264 core 157 r2935 545de2f

Audio #1
Format                         : AAC
Duration                       : 1 h 15 min
Bit rate                       : 96.0 kb/s
Channel(s)                     : 2 channels
Channel positions              : Front: L R
Sampling rate                  : 48.0 kHz
Frame rate                     : 46.875 FPS (1024 SPF)
Compression mode               : Lossy
Delay relative to video        : -42 ms
Stream size                    : 51.8 MiB (11%)
Title                          : GOPISAHI
Language                       : Hindi

Audio #2
Format                         : AAC
Duration                       : 1 h 15 min
Bit rate                       : 96.0 kb/s
Channel(s)                     : 2 channels
Channel positions              : Front: L R
Sampling rate                  : 48.0 kHz
Frame rate                     : 46.875 FPS (1024 SPF)
Compression mode               : Lossy
Delay relative to video        : -42 ms
Stream size                    : 52.0 MiB (11%)
Title                          : GOPISAHI
Language                       : English

Text
Language                       : English








Post a Comment

0 Comments