Search This Blog

Ben 10 Secret Of The Omnitrix 2007 x264 720p BluRay Dual Audio Hindi English Telugu Tamil GOPISAHI

Ben 10: Secret of the Omnitrix (2007)


When the Omnitrix begins a countdown to self-destruction, Ben and Gwen team up with Tetrax to find the watch's creator before it's too late.

Directors:

Sebastian Montes (as Sebastian O. Montes III), Scooter Tidwell

Writers:

Tom Pugsley (as Thomas Pugsley), Greg Klein | 5 more credits »

Format                         : Matroska
Format version                 : Version 4 / Version 2
File size                      : 554 MiB
Duration                       : 1 h 11 min
Overall bit rate               : 1 088 kb/s
Movie name                     : Ben 10 Secret Of The Omnitrix 2007 GOPISAHI

Video
Format                         : AVC
Format/Info                    : Advanced Video Codec
Codec ID                       : V_MPEG4/ISO/AVC
Duration                       : 1 h 11 min
Bit rate                       : 699 kb/s
Width                          : 1 280 pixels
Height                         : 720 pixels
Display aspect ratio           : 16:9
Frame rate mode                : Constant
Frame rate                     : 23.976 (24000/1001) FPS
Color space                    : YUV
Chroma subsampling             : 4:2:0
Bit depth                      : 8 bits
Scan type                      : Progressive
Bits/(Pixel*Frame)             : 0.032
Stream size                    : 356 MiB (64%)
Title                          : GOPISAHI
Writing library                : x264 core 157 r2935 545de2f

Audio #1
Format                         : AAC
Duration                       : 1 h 11 min
Bit rate                       : 96.0 kb/s
Channel(s)                     : 2 channels
Channel positions              : Front: L R
Sampling rate                  : 48.0 kHz
Frame rate                     : 46.875 FPS (1024 SPF)
Compression mode               : Lossy
Delay relative to video        : -21 ms
Stream size                    : 49.1 MiB (9%)
Title                          : GOPISAHI
Language                       : Hindi

Audio #2
Format                         : AAC
Duration                       : 1 h 11 min
Bit rate                       : 96.0 kb/s
Channel(s)                     : 2 channels
Channel positions              : Front: L R
Sampling rate                  : 48.0 kHz
Frame rate                     : 46.875 FPS (1024 SPF)
Compression mode               : Lossy
Delay relative to video        : -21 ms
Stream size                    : 49.1 MiB (9%)
Title                          : GOPISAHI
Language                       : English

Audio #3
Format                         : AAC
Duration                       : 1 h 11 min
Bit rate                       : 96.0 kb/s
Channel(s)                     : 2 channels
Channel positions              : Front: L R
Sampling rate                  : 48.0 kHz
Frame rate                     : 46.875 FPS (1024 SPF)
Compression mode               : Lossy
Delay relative to video        : -21 ms
Stream size                    : 48.8 MiB (9%)
Title                          : GOPISAHI
Language                       : Telugu

Audio #4
Format                         : AAC
Duration                       : 1 h 11 min
Bit rate                       : 96.0 kb/s
Channel(s)                     : 2 channels
Channel positions              : Front: L R
Sampling rate                  : 48.0 kHz
Frame rate                     : 46.875 FPS (1024 SPF)
Compression mode               : Lossy
Delay relative to video        : -21 ms
Stream size                    : 48.9 MiB (9%)
Title                          : GOPISAHI
Language                       : Tamil








Post a Comment

0 Comments