Search This Blog

Central Intelligence 2016 Unrated x264 720p Esub BluRay 6.0 Dual Audio English Hindi GOPISAHI


Format                         : Matroska
Format version                 : Version 4 / Version 2
File size                      : 1.06 GiB
Duration                       : 1 h 56 min
Overall bit rate               : 1 304 kb/s
Movie name                     : Central Intelligence 2016 Unrated 1080p GOPISAHI

Video
Format                         : AVC
Format/Info                    : Advanced Video Codec
Format profile                 : [email protected]
Codec ID                       : V_MPEG4/ISO/AVC
Duration                       : 1 h 56 min
Bit rate                       : 899 kb/s
Width                          : 1 280 pixels
Height                         : 534 pixels
Display aspect ratio           : 2.40:1
Frame rate mode                : Constant
Frame rate                     : 23.976 (24000/1001) FPS
Color space                    : YUV
Chroma subsampling             : 4:2:0
Bit depth                      : 8 bits
Scan type                      : Progressive
Bits/(Pixel*Frame)             : 0.055
Stream size                    : 749 MiB (69%)
Title                          : GOPISAHI
Writing library                : x264 core 157 r2935 545de2f

Audio #1
Format                         : AAC
Duration                       : 1 h 56 min
Bit rate                       : 192 kb/s
Channel(s)                     : 6 channels
Channel positions              : Front: L C R, Side: C, Back: L R
Sampling rate                  : 48.0 kHz
Frame rate                     : 46.875 FPS (1024 SPF)
Compression mode               : Lossy
Delay relative to video        : -21 ms
Stream size                    : 160 MiB (15%)
Title                          : GOPISAHI
Language                       : Hindi

Audio #2
Format                         : AAC
Duration                       : 1 h 56 min
Bit rate                       : 192 kb/s
Channel(s)                     : 6 channels
Channel positions              : Front: L C R, Side: C, Back: L R
Sampling rate                  : 48.0 kHz
Frame rate                     : 46.875 FPS (1024 SPF)
Compression mode               : Lossy
Delay relative to video        : -21 ms
Stream size                    : 160 MiB (15%)
Title                          : GOPISAHI
Language                       : English

Text
Format                         : PGS
Language                       : English

Menu
00:00:00.000                   : :Chapter 1
00:09:32.489                   : :Chapter 2
00:21:47.848                   : :Chapter 3
00:32:26.862                   : :Chapter 4
00:47:37.104                   : :Chapter 5
00:57:28.528                   : :Chapter 6
01:03:15.750                   : :Chapter 7
01:17:23.222                   : :Chapter 8
01:26:11.541                   : :Chapter 9
01:36:29.993                   : :Chapter 10
01:48:21.412                   : :Chapter 11





https://mirrorace.com/m/4dIyW

http://drivehub.link/file.php?id=SlJWMlpUMHVSeUs3ZzVXY3ltT3VFcENNMDBQSXQ3RFBkSEVxdC95azdYMGFhaUdoTHdSVDYxU0tDUTJGZ0dFNQ==

https://links-safety.com/drive/wgx8ue4x1c50u3pfdrsww8eoc

https://linksclub.biz/drive/download.php?id=c22e09252f171ff8eebd

https://linkstaker.xyz/drive/download.php?id=dcab1bbb2e941c695a1f

https://linksclub.biz/drive/download.php?id=88279fc4583b90a4142f

https://ulozto.net/!iJ9r2SvQWfVP/central-20intelligence-202016-20unrated-20x264-20720p-20esub-20bluray-206-0-20dual-20audio-20english-20hindi-20gopisahi-mkv-st-d6j7svixwtsjp56kz8-d4w-e-1555308315

https://1drv.ms/u/s!ArtoZbb-S16ogws07AFfjfaIpD9D?e=2f8vCN

https://uploadfiles.pw/0920a506307e4e11

https://uptobox.com/cff5snk9jezx

https://www.indishare.me/fl1li4dzevnf

https://megaup.net/gF12/Central_Intelligence_2016_Unrated_x264_720p_Esub_BluRay_6.0_Dual_Audio_English_Hindi_GOPISAHI.mkv

804 MB HINDI 720P

344 MB HINDI



Post a Comment

0 Comments