Search This Blog

Dagon 2001 Unrated x264 720p Esub BluRay Dual Audio English Hindi GOPISAHI

Dagon (2001)


A boating accident runs a young man and woman ashore in a decrepit Spanish fishing town which they discover is in the grips of an ancient sea god and its monstrous half human offspring.

Director:

Stuart Gordon

Writers:

H.P. Lovecraft (short stories "Dagon" and "The Shadow Over Innsmouth"), Dennis Paoli (screenplay)
Format                         : Matroska
Format version                 : Version 4 / Version 2
File size                      : 687 MiB
Duration                       : 1 h 37 min
Overall bit rate               : 981 kb/s
Movie name                     : Dagon 2001 UNRATED GOPISAHI

Video
Format                         : AVC
Format/Info                    : Advanced Video Codec
Codec ID                       : V_MPEG4/ISO/AVC
Duration                       : 1 h 36 min
Bit rate                       : 699 kb/s
Width                          : 1 280 pixels
Height                         : 720 pixels
Display aspect ratio           : 16:9
Frame rate mode                : Constant
Frame rate                     : 23.976 (24000/1001) FPS
Color space                    : YUV
Chroma subsampling             : 4:2:0
Bit depth                      : 8 bits
Scan type                      : Progressive
Bits/(Pixel*Frame)             : 0.032
Stream size                    : 482 MiB (70%)
Title                          : GOPISAHI
Writing library                : x264 core 157 r2935 545de2f

Audio #1
Format                         : AAC
Duration                       : 1 h 37 min
Bit rate                       : 96.0 kb/s
Channel(s)                     : 2 channels
Channel positions              : Front: L R
Sampling rate                  : 48.0 kHz
Frame rate                     : 46.875 FPS (1024 SPF)
Compression mode               : Lossy
Delay relative to video        : -21 ms
Stream size                    : 67.6 MiB (10%)
Title                          : GOPISAHI
Language                       : Hindi

Audio #2
Format                         : AAC
Duration                       : 1 h 37 min
Bit rate                       : 192 kb/s
Channel(s)                     : 6 channels
Channel positions              : Front: L C R, Side: C, Back: L R
Sampling rate                  : 48.0 kHz
Frame rate                     : 46.875 FPS (1024 SPF)
Compression mode               : Lossy
Delay relative to video        : -21 ms
Stream size                    : 135 MiB (20%)
Title                          : GOPISAHI
Language                       : English


















Post a Comment

0 Comments