Search This Blog

Everest 2015 x264 720p Esub BluRay 6.0 Dual Audio English Hindi GOPISAHI

 Format                         : Matroska
Format version                 : Version 4 / Version 2
File size                      : 1.12 GiB
Duration                       : 2 h 1 min
Overall bit rate               : 1 328 kb/s
Movie name                     : Everest 2015 GOPISAHI

Video
Format                         : AVC
Format/Info                    : Advanced Video Codec
Codec ID                       : V_MPEG4/ISO/AVC
Duration                       : 2 h 1 min
Bit rate                       : 899 kb/s
Width                          : 1 280 pixels
Height                         : 536 pixels
Display aspect ratio           : 2.40:1
Frame rate mode                : Constant
Frame rate                     : 23.976 (24000/1001) FPS
Color space                    : YUV
Chroma subsampling             : 4:2:0
Bit depth                      : 8 bits
Scan type                      : Progressive
Bits/(Pixel*Frame)             : 0.055
Stream size                    : 779 MiB (68%)
Title                          : GOPISAHI
Writing library                : x264 core 157 r2935 545de2f

Audio #1
Format                         : AAC
Duration                       : 2 h 1 min
Bit rate                       : 192 kb/s
Channel(s)                     : 6 channels
Channel positions              : Front: L C R, Side: C, Back: L R
Sampling rate                  : 48.0 kHz
Frame rate                     : 46.875 FPS (1024 SPF)
Compression mode               : Lossy
Delay relative to video        : -21 ms
Stream size                    : 167 MiB (14%)
Title                          : GOPISAHI
Language                       : Hindi
Default                        : Yes

Audio #2
Format                         : AAC
Duration                       : 2 h 1 min
Bit rate                       : 192 kb/s
Channel(s)                     : 6 channels
Channel positions              : Front: L C R, Side: C, Back: L R
Sampling rate                  : 48.0 kHz
Frame rate                     : 46.875 FPS (1024 SPF)
Compression mode               : Lossy
Delay relative to video        : -21 ms
Stream size                    : 167 MiB (14%)
Title                          : GOPISAHI
Language                       : English

Text #1
Format                         : PGS
Language                       : Hindi

Text #2
Format                         : PGS
Language                       : Hindi

Text #3
Format                         : PGS
Language                       : English

Text #4
Format                         : PGS
Language                       : English

Menu
00:00:00.000                   : :Chapter 1
00:05:12.270                   : :Chapter 2
00:09:36.076                   : :Chapter 3
00:15:13.162                   : :Chapter 4
00:20:58.424                   : :Chapter 5
00:26:30.714                   : :Chapter 6
00:33:15.118                   : :Chapter 7
00:40:23.755                   : :Chapter 8
00:47:23.382                   : :Chapter 9
00:52:14.590                   : :Chapter 10
00:57:49.174                   : :Chapter 11
01:01:54.794                   : :Chapter 12
01:07:22.080                   : :Chapter 13
01:15:40.578                   : :Chapter 14
01:21:03.901                   : :Chapter 15
01:26:59.589                   : :Chapter 16
01:32:39.137                   : :Chapter 17
01:41:20.449                   : :Chapter 18
01:46:47.651                   : :Chapter 19
01:54:06.715                   : :Chapter 20






https://mirrorace.com/m/2RI54

https://www.amazon.com/clouddrive/share/Kk4pPNySCh0j9yg3Qkuuo1t7R62gVPUZ90k8RHN32V1

https://megaup.net/gA41/Everest_2015_x264_720p_Esub_BluRay_6.0_Dual_Audio_English_Hindi_GOPISAHI.mkv

http://drivehub.link/file.php?id=N3hXQytJTk44S05oN1pKUzJnUmJlUkpQY2M1LzdMZzdNdEZjVTNxSkdLaU1uK2RZY3RhMFdoRXRYUDE5bG5LRA==

https://linkstaker.pw/drive/download.php?id=b0b76e55b3820016b36a

https://linksclub.biz/drive/download.php?id=30bb2b88d8af98b1bcea

https://links-safety.com/drive/vcfch20iw6nrwe51k1ti4rq9d

https://uploadfiles.pw/1da8f1d9a8460cab

https://www.oboom.com/MLCLO4AC

https://www.indishare.me/h1fof0ownpkv

https://ulozto.net/!VkmpsHmVp23C/everest-202015-20x264-20720p-20esub-20bluray-206-0-20dual-20audio-20english-20hindi-20gopisahi-mkv-st-nkw4bogv1s7fwwcfyano1g-e-1554876603

1 GB 720P HINDI

353 MB HINDI



Post a Comment

0 Comments