Search This Blog

Gully Boy 2019 x264 720p Esub HD Hindi GOPISAHI

8.4/10
11,638

Gully Boy (2019)

Not Rated | | Drama, Music | 14 February 2019 (USA)

A coming-of-age story based on the lives of street rappers in Mumbai.

Director:

Zoya Akhtar

Reviews
Popularity
2,622 ( 446)
 

Format                         : Matroska
Format version                 : Version 4 / Version 2
File size                      : 880 MiB
Duration                       : 2 h 34 min
Overall bit rate               : 797 kb/s
Movie name                     : Gully Boy 2019 GOPISAHI

Video
Format                         : AVC
Format/Info                    : Advanced Video Codec
Format profile                 : [email protected]
Codec ID                       : V_MPEG4/ISO/AVC
Duration                       : 2 h 34 min
Bit rate                       : 699 kb/s
Width                          : 1 280 pixels
Height                         : 582 pixels
Display aspect ratio           : 2.2:1
Frame rate mode                : Constant
Frame rate                     : 23.976 (23976/1000) FPS
Color space                    : YUV
Chroma subsampling             : 4:2:0
Bit depth                      : 8 bits
Scan type                      : Progressive
Bits/(Pixel*Frame)             : 0.039
Stream size                    : 771 MiB (88%)
Title                          : GOPISAHI
Writing library                : x264 core 157 r2935 545de2f

Audio
Format                         : AAC
Duration                       : 2 h 34 min
Bit rate                       : 96.0 kb/s
Channel(s)                     : 2 channels
Channel positions              : Front: L R
Sampling rate                  : 48.0 kHz
Frame rate                     : 46.875 FPS (1024 SPF)
Compression mode               : Lossy
Delay relative to video        : -21 ms
Stream size                    : 106 MiB (12%)
Title                          : GOPISAHI
Language                       : Hindi

Text
Language                       : English







Post a Comment

0 Comments