Search This Blog

Hellboy Logy x264 720p Esub BluRay Dual Audio English Hindi 6.0 GOPISAHI

Hellboy (2019)

Based on the graphic novels by Mike Mignola, Hellboy, caught between the worlds of the supernatural and human, battles an ancient sorceress bent on revenge.

Director:

Neil Marshall

Writers:

Andrew Cosby (screenplay by), Mike Mignola (based on the Dark Horse Comic Book "Hellboy" created by)

Hellboy stars David Harbour, Milla Jovovich, Daniel Dae Kim, and Ian McShane talk Marvel, Deadpool, and John Wick crossovers alongside their devilish characters.



Format                         : Matroska
Format version                 : Version 4 / Version 2
File size                      : 972 MiB
Duration                       : 1 h 59 min
Overall bit rate               : 1 135 kb/s
Movie name                     : Hellboy

Video
Format                         : AVC
Format/Info                    : Advanced Video Codec
Codec ID                       : V_MPEG4/ISO/AVC
Duration                       : 1 h 59 min
Bit rate                       : 839 kb/s
Width                          : 1 280 pixels
Height                         : 688 pixels
Display aspect ratio           : 1.85:1
Frame rate mode                : Constant
Frame rate                     : 23.976 (24000/1001) FPS
Color space                    : YUV
Chroma subsampling             : 4:2:0
Bit depth                      : 8 bits
Scan type                      : Progressive
Bits/(Pixel*Frame)             : 0.040
Stream size                    : 718 MiB (74%)
Title                          : GOPISAHI
Writing library                : x264 core 120 r2164 da19765

Audio #1
Format                         : AAC
Duration                       : 1 h 59 min
Bit rate                       : 192 kb/s
Channel(s)                     : 6 channels
Channel positions              : Front: L C R, Side: C, Back: L R
Sampling rate                  : 48.0 kHz
Frame rate                     : 46.875 FPS (1024 SPF)
Compression mode               : Lossy
Stream size                    : 165 MiB (17%)
Title                          : GOPISAHI
Language                       : Hindi

Audio #2
Format                         : AAC
Duration                       : 1 h 59 min
Bit rate                       : 96.0 kb/s
Channel(s)                     : 2 channels
Channel positions              : Front: L R
Sampling rate                  : 48.0 kHz
Frame rate                     : 46.875 FPS (1024 SPF)
Compression mode               : Lossy
Stream size                    : 82.5 MiB (8%)
Title                          : GOPISAHI
Language                       : English

Text
Format                         : VobSub
Stream size                    : 7.17 MiB (1%)
Title                          : GOPISAHI
Language                       : English





Post a Comment

0 Comments