Search This Blog

Lowriders 2016 x264 720p Esub BluRay Dual Audio English Hindi GOPISAHI

Lowriders (2016)

PG-13 | | Adventure, Crime, Drama | 12 May 2017 (USA)

A young street artist in East Los Angeles is caught between his father's obsession with lowrider car culture, his ex-felon brother and his need for self-expression.


Format                         : Matroska
Format version                 : Version 4 / Version 2
File size                      : 904 MiB
Duration                       : 1 h 38 min
Overall bit rate               : 1 287 kb/s
Movie name                     : Lowriders 2016 GOPISAHI

Video
ID                             : 1
Format                         : AVC
Format/Info                    : Advanced Video Codec
Format profile                 : [email protected]
Codec ID                       : V_MPEG4/ISO/AVC
Duration                       : 1 h 38 min
Bit rate                       : 900 kb/s
Width                          : 1 280 pixels
Height                         : 534 pixels
Display aspect ratio           : 2.40:1
Original display aspect ratio  : 2.40:1
Frame rate mode                : Constant
Frame rate                     : 23.976 (24000/1001) FPS
Color space                    : YUV
Chroma subsampling             : 4:2:0
Bit depth                      : 8 bits
Scan type                      : Progressive
Bits/(Pixel*Frame)             : 0.055
Stream size                    : 632 MiB (70%)
Title                          : GOPISAHI
Writing library                : x264 core 148

Audio #1
Format                         : AAC
Duration                       : 1 h 38 min
Bit rate                       : 192 kb/s
Channel(s)                     : 6 channels
Channel positions              : Front: L C R, Side: C, Back: L R
Sampling rate                  : 48.0 kHz
Frame rate                     : 46.875 FPS (1024 SPF)
Compression mode               : Lossy
Delay relative to video        : 966 ms
Stream size                    : 135 MiB (15%)
Title                          : GOPISAHI
Language                       : Hindi

Audio #2
Format                         : AAC
Duration                       : 1 h 38 min
Bit rate                       : 192 kb/s
Channel(s)                     : 6 channels
Channel positions              : Front: L C R, Side: C, Back: L R
Sampling rate                  : 48.0 kHz
Frame rate                     : 46.875 FPS (1024 SPF)
Compression mode               : Lossy
Stream size                    : 135 MiB (15%)
Title                          : GOPISAHI
Language                       : English

Text
Language                       : English








Post a Comment

0 Comments