Search This Blog

Poseidon 2006 x264 720p Esub BluRay 6.0 Dual Audio English Hindi GOPISAHI

Format                         : Matroska
Format version                 : Version 4 / Version 2
File size                      : 843 MiB
Duration                       : 1 h 38 min
Overall bit rate               : 1 200 kb/s
Movie name                     : Poseidon 2006 GOPISAHI

Video
Format                         : AVC
Format/Info                    : Advanced Video Codec
Format profile                 : [email protected]
Codec ID                       : V_MPEG4/ISO/AVC
Duration                       : 1 h 38 min
Bit rate                       : 899 kb/s
Width                          : 1 280 pixels
Height                         : 530 pixels
Display aspect ratio           : 2.40:1
Frame rate mode                : Constant
Frame rate                     : 23.976 (24000/1001) FPS
Color space                    : YUV
Chroma subsampling             : 4:2:0
Bit depth                      : 8 bits
Scan type                      : Progressive
Bits/(Pixel*Frame)             : 0.055
Stream size                    : 631 MiB (75%)
Title                          : GOPISAHI
Writing library                : x264 core 157 r2935 545de2f

Audio #1
Format                         : AAC
Duration                       : 1 h 38 min
Bit rate                       : 96.0 kb/s
Channel(s)                     : 2 channels
Channel positions              : Front: L R
Sampling rate                  : 48.0 kHz
Frame rate                     : 46.875 FPS (1024 SPF)
Compression mode               : Lossy
Delay relative to video        : 1 s 830 ms
Stream size                    : 67.9 MiB (8%)
Title                          : GOPISAHI
Language                       : Hindi

Audio #2
Format                         : AAC
Duration                       : 1 h 38 min
Bit rate                       : 192 kb/s
Channel(s)                     : 6 channels
Channel positions              : Front: L C R, Side: C, Back: L R
Sampling rate                  : 48.0 kHz
Frame rate                     : 46.875 FPS (1024 SPF)
Compression mode               : Lossy
Delay relative to video        : -21 ms
Stream size                    : 135 MiB (16%)
Title                          : GOPISAHI
Language                       : English

Text
Format                         : PGS
Stream size                    : 15.3 MiB (2%)
Title                          : GOPISAHI
Language                       : English

Menu
00:00:00.000                   : :Chapter 1
00:03:35.674                   : :Chapter 2
00:07:20.982                   : :Chapter 3
00:12:16.778                   : :Chapter 4
00:15:22.713                   : :Chapter 5
00:19:56.821                   : :Chapter 6
00:24:27.716                   : :Chapter 7
00:28:10.063                   : :Chapter 8
00:34:07.629                   : :Chapter 9
00:38:14.334                   : :Chapter 10
00:43:04.874                   : :Chapter 11
00:46:24.824                   : :Chapter 12
00:48:19.021                   : :Chapter 13
00:55:12.476                   : :Chapter 14
00:59:44.873                   : :Chapter 15
01:04:44.089                   : :Chapter 16
01:08:44.078                   : :Chapter 17
01:12:24.799                   : :Chapter 18
01:15:43.330                   : :Chapter 19
01:20:08.429                   : :Chapter 20
01:23:57.032                   : :Chapter 21
01:29:09.344                   : :Chapter 22















Post a Comment

0 Comments