Search This Blog

Prince Of Persia - The Sands Of Time 2010 x264 720p Esub BluRay 6. 0 Dual Audio English Hindi GOPISAHI


Prince Of Persia - The Sands Of Time 2010 x264 720p Esub BluRay 6. 0 Dual Audio English Hindi GOPISAHI

Format                         : Matroska
Format version                 : Version 4 / Version 2
File size                      : 1.06 GiB
Duration                       : 1 h 55 min
Overall bit rate               : 1 304 kb/s
Movie name                     : Prince of Persia: The Sands of Time 2010 GOPISAHI

Video
Format                         : AVC
Format/Info                    : Advanced Video Codec
Codec ID                       : V_MPEG4/ISO/AVC
Duration                       : 1 h 55 min
Bit rate                       : 899 kb/s
Width                          : 1 280 pixels
Height                         : 534 pixels
Display aspect ratio           : 2.40:1
Frame rate mode                : Constant
Frame rate                     : 23.976 (24000/1001) FPS
Color space                    : YUV
Chroma subsampling             : 4:2:0
Bit depth                      : 8 bits
Scan type                      : Progressive
Bits/(Pixel*Frame)             : 0.055
Stream size                    : 745 MiB (69%)
Title                          : GOPISAHI
Writing library                : x264 core 157 r2935 545de2f

Audio #1
Format                         : AAC
Duration                       : 1 h 55 min
Bit rate                       : 192 kb/s
Channel(s)                     : 6 channels
Channel positions              : Front: L C R, Side: C, Back: L R
Sampling rate                  : 48.0 kHz
Frame rate                     : 46.875 FPS (1024 SPF)
Compression mode               : Lossy
Delay relative to video        : -21 ms
Stream size                    : 159 MiB (15%)
Title                          : GOPISAHI
Language                       : Hindi

Audio #2
Format                         : AAC
Duration                       : 1 h 55 min
Bit rate                       : 192 kb/s
Channel(s)                     : 6 channels
Channel positions              : Front: L C R, Side: C, Back: L R
Sampling rate                  : 48.0 kHz
Frame rate                     : 46.875 FPS (1024 SPF)
Compression mode               : Lossy
Delay relative to video        : -21 ms
Stream size                    : 159 MiB (15%)
Title                          : GOPISAHI
Language                       : English

Text #1
Format                         : PGS
Language                       : English

Text #2
Format                         : PGS
Language                       : English

Menu
00:00:00.000                   : :Chapter 1
00:04:24.681                   : :Chapter 2
00:08:37.392                   : :Chapter 3
00:16:52.762                   : :Chapter 4
00:22:51.579                   : :Chapter 5
00:29:07.788                   : :Chapter 6
00:32:57.851                   : :Chapter 7
00:36:58.216                   : :Chapter 8
00:40:31.095                   : :Chapter 9
00:46:08.266                   : :Chapter 10
00:58:00.769                   : :Chapter 11
01:00:17.030                   : :Chapter 12
01:07:01.142                   : :Chapter 13
01:10:47.744                   : :Chapter 14
01:15:46.667                   : :Chapter 15
01:20:37.124                   : :Chapter 16
01:27:37.294                   : :Chapter 17
01:32:19.534                   : :Chapter 18
01:40:51.754                   : :Chapter 19
01:48:29.837                   : :Chapter 20










Post a Comment

0 Comments