Search This Blog

Romeo Akbar Walter 2019 x264 720p HD Hindi GOPISAHI

Romeo Akbar Walter (2019)

Not Rated | | Action, Drama, Thriller | 5 April 2019 (USA)
During the India-Pakistan war of 1971, an Indian banker is recruited by RAW (Research and Analysis Wing) for a covert operation deep inside Pakistan.

Director:

Robbie Grewal (as Robby Grewal)

Writers:

Robbie Grewal (as Robby Grewal), Ishraq Shah (additional dialogue)

Reviews
Popularity
691 ( 10,545)

Format                         : Matroska
Format version                 : Version 4 / Version 2
File size                      : 786 MiB
Duration                       : 2 h 18 min
Overall bit rate               : 793 kb/s
Movie name                     : Romeo Akbar Walter 2019 GOPISAHI

Video
Format                         : AVC
Format/Info                    : Advanced Video Codec
Codec ID                       : V_MPEG4/ISO/AVC
Duration                       : 2 h 18 min
Bit rate                       : 699 kb/s
Width                          : 1 280 pixels
Height                         : 532 pixels
Display aspect ratio           : 2.40:1
Frame rate mode                : Constant
Frame rate                     : 24.000 FPS
Color space                    : YUV
Chroma subsampling             : 4:2:0
Bit depth                      : 8 bits
Scan type                      : Progressive
Bits/(Pixel*Frame)             : 0.043
Stream size                    : 693 MiB (88%)
Title                          : GOPISAHI
Writing library                : x264 core 157 r2935 545de2f

Audio
Format                         : AAC
Duration                       : 2 h 18 min
Bit rate                       : 92.0 kb/s
Channel(s)                     : 2 channels
Channel positions              : Front: L R
Sampling rate                  : 48.0 kHz
Frame rate                     : 46.875 FPS (1024 SPF)
Compression mode               : Lossy
Delay relative to video        : -21 ms
Stream size                    : 91.2 MiB (12%)
Title                          : GOPISAHI
Language                       : Hindi






Post a Comment

0 Comments