Search This Blog

Terrordactyl 2016 x264 720p Esub HD Dual Audio Hindi English GOPISAHI

Terrordactyl (2016)

Not Rated | | Action, Adventure, Comedy | 16 June 2016 (USA)

When ancient flying reptiles attack Los Angeles, it's up to two working-class friends, the unlikeliest of heroes, to save the day.

Writer:

Don Bitters III

4.3/10
424
Format                         : Matroska
Format version                 : Version 4 / Version 2
File size                      : 558 MiB
Duration                       : 1 h 38 min
Overall bit rate               : 795 kb/s
Movie name                     : Terrordactyl 2016 GOPISAHI

Video
Format                         : AVC
Format/Info                    : Advanced Video Codec
Format profile                 : [email protected]
Codec ID                       : V_MPEG4/ISO/AVC
Duration                       : 1 h 38 min
Bit rate                       : 599 kb/s
Width                          : 1 280 pixels
Height                         : 720 pixels
Display aspect ratio           : 16:9
Frame rate mode                : Constant
Frame rate                     : 25.000 FPS
Color space                    : YUV
Chroma subsampling             : 4:2:0
Bit depth                      : 8 bits
Scan type                      : Progressive
Bits/(Pixel*Frame)             : 0.026
Stream size                    : 420 MiB (75%)
Title                          : GOPISAHI
Writing library                : x264 core 157 r2935 545de2f

Audio #1
Format                         : AAC
Duration                       : 1 h 38 min
Bit rate                       : 96.0 kb/s
Channel(s)                     : 2 channels
Channel positions              : Front: L R
Sampling rate                  : 48.0 kHz
Frame rate                     : 46.875 FPS (1024 SPF)
Compression mode               : Lossy
Delay relative to video        : -21 ms
Stream size                    : 67.7 MiB (12%)
Title                          : GOPISAHI
Language                       : Hindi

Audio #2
Format                         : AAC
Duration                       : 1 h 38 min
Bit rate                       : 96.0 kb/s
Channel(s)                     : 2 channels
Channel positions              : Front: L R
Sampling rate                  : 48.0 kHz
Frame rate                     : 46.875 FPS (1024 SPF)
Compression mode               : Lossy
Delay relative to video        : -21 ms
Stream size                    : 67.8 MiB (12%)
Title                          : GOPISAHI
Language                       : English

Text
Language                       : English











No comments:

Post a Comment