Search This Blog

The 4Th Floor 1999 x264 720p Esub BluRay Dual Audio English Hindi GOPISAHI


Format                         : Matroska
Format version                 : Version 4 / Version 2
File size                      : 578 MiB
Duration                       : 1 h 30 min
Overall bit rate               : 894 kb/s
Movie name                     : The 4th Floor 1999 GOPISAHI

Video
Format                         : AVC
Format/Info                    : Advanced Video Codec
Format profile                 : [email protected]
Codec ID                       : V_MPEG4/ISO/AVC
Duration                       : 1 h 30 min
Bit rate                       : 699 kb/s
Width                          : 1 280 pixels
Height                         : 714 pixels
Display aspect ratio           : 16:9
Frame rate mode                : Constant
Frame rate                     : 24.000 FPS
Color space                    : YUV
Chroma subsampling             : 4:2:0
Bit depth                      : 8 bits
Scan type                      : Progressive
Bits/(Pixel*Frame)             : 0.032
Stream size                    : 452 MiB (78%)
Title                          : GOPISAHI
Writing library                : x264 core 157 r2935 545de2f

Audio #1
Format                         : AAC
Duration                       : 1 h 30 min
Bit rate                       : 96.0 kb/s
Channel(s)                     : 2 channels
Channel positions              : Front: L R
Sampling rate                  : 48.0 kHz
Frame rate                     : 46.875 FPS (1024 SPF)
Compression mode               : Lossy
Delay relative to video        : -64 ms
Stream size                    : 62.2 MiB (11%)
Title                          : GOPISAHI
Language                       : Hindi

Audio #2
Format                         : AAC
Duration                       : 1 h 30 min
Bit rate                       : 96.0 kb/s
Channel(s)                     : 2 channels
Channel positions              : Front: L R
Sampling rate                  : 48.0 kHz
Frame rate                     : 46.875 FPS (1024 SPF)
Compression mode               : Lossy
Delay relative to video        : -64 ms
Stream size                    : 62.3 MiB (11%)
Title                          : GOPISAHI
Language                       : English

Text
Language                       : English





https://mirrorace.com/m/3xLap

http://drivehub.link/file.php?id=K1kxOWhWL1didmVIeWsyUDB1ejN4VENmcW9sV2N3dllBb3hFUXc3bkRJRkVJVzF6Qkc2eGcxY1ljMkp2WkdpbA==

https://linkstaker.pw/drive/download.php?id=2641c6cb4afbfe8ca35e

https://linksclub.biz/drive/download.php?id=71a01aa234a47d4f69f5

https://linkstaker.xyz/drive/download.php?id=24b542b633c3de9aa3b9

https://links-safety.com/drive/zwuht1j11vb5jtqalxvheswnk

https://uploadfiles.pw/5d5c48ed97f2f9a6

https://1drv.ms/u/s!ArtoZbb-S16ogw3g7aWg7GqlUmlY?e=3K8SWW

https://www.oboom.com/QSKYLS3B

https://www.indishare.me/akz5g5gszfjk

https://ulozto.net/!ylwuLTU4Zdgg/the-204th-20floor-201999-20x264-20720p-20esub-20bluray-20dual-20audio-20english-20hindi-20gopisahi-mkv-st-ve3ts2roxzmhud2ahsqrrw-e-1555315242

https://uptobox.com/wnmb6kuwwc12

622 MB 720P HINDI

171 MB HINDI




Post a Comment

0 Comments