Search This Blog

The Da Vinci Code 2006 Extended x264 720p Esub BluRay Dual Audio English Hindi GOPISAHI

Format                         : Matroska
Format version                 : Version 4 / Version 2
File size                      : 1.09 GiB
Duration                       : 2 h 54 min
Overall bit rate               : 895 kb/s
Movie name                     : Da Vinci Code 2006 GOPISAHI

Video
Format                         : AVC
Format/Info                    : Advanced Video Codec
Codec ID                       : V_MPEG4/ISO/AVC
Duration                       : 2 h 54 min
Bit rate                       : 699 kb/s
Width                          : 1 280 pixels
Height                         : 534 pixels
Display aspect ratio           : 2.40:1
Frame rate mode                : Constant
Frame rate                     : 23.976 (24000/1001) FPS
Color space                    : YUV
Chroma subsampling             : 4:2:0
Bit depth                      : 8 bits
Scan type                      : Progressive
Bits/(Pixel*Frame)             : 0.043
Stream size                    : 873 MiB (78%)
Title                          : GOPISAHI
Writing library                : x264 core 157 r2935 545de2f

Audio #1
Format                         : AAC
Duration                       : 2 h 54 min
Bit rate                       : 96.0 kb/s
Channel(s)                     : 2 channels
Channel positions              : Front: L R
Sampling rate                  : 48.0 kHz
Frame rate                     : 46.875 FPS (1024 SPF)
Compression mode               : Lossy
Delay relative to video        : -42 ms
Stream size                    : 121 MiB (11%)
Title                          : GOPISAHI
Language                       : Hindi

Audio #2
Format                         : AAC
Duration                       : 2 h 54 min
Bit rate                       : 96.0 kb/s
Channel(s)                     : 2 channels
Channel positions              : Front: L R
Sampling rate                  : 48.0 kHz
Frame rate                     : 46.875 FPS (1024 SPF)
Compression mode               : Lossy
Delay relative to video        : -2 ms
Stream size                    : 121 MiB (11%)
Title                          : GOPISAHI
Language                       : English

Text #1
Language                       : English

Text #2
Language                       : Bengali








Post a Comment

0 Comments