Search This Blog

Brightburn 2019 x264 720p Esub HD Dual Audio Hindi English Telugu Tamil GOPISAHI

Brightburn (2019)

R | | Horror, Sci-Fi | 24 May 2019 (USA)

What if a child from another world crash-landed on Earth, but instead of becoming a hero to mankind, he proved to be something far more sinister?

Director:

David Yarovesky

Writers:

Brian Gunn, Mark Gunn

6.2/10
47,074

Production
company
Distributed bySony Pictures Releasing
Release date
  • May 24, 2019 (United States)
Running time
90 minutes
CountryUnited States
LanguageEnglish
Budget$6–12 million[1]
Box office$33 million[2]

 Brightburn 2019 x264 720p Esub HD Dual Audio Hindi English Telugu Tamil GOPISAHI

Format                         : Matroska
Format version                 : Version 4
File size                      : 959 MiB
Duration                       : 1 h 30 min
Overall bit rate               : 1 481 kb/s
Movie name                     : Brightburn 2019 GOPISAHI

Video
Format                         : AVC
Format/Info                    : Advanced Video Codec
Format profile                 : [email protected]
Format settings                : CABAC / 12 Ref Frames
Format settings, CABAC         : Yes
Format settings, Reference fra : 12 frames
Codec ID                       : V_MPEG4/ISO/AVC
Duration                       : 1 h 30 min
Bit rate                       : 899 kb/s
Width                          : 1 280 pixels
Height                         : 534 pixels
Display aspect ratio           : 2.40:1
Frame rate mode                : Constant
Frame rate                     : 23.976 (24000/1001) FPS
Color space                    : YUV
Chroma subsampling             : 4:2:0
Bit depth                      : 8 bits
Scan type                      : Progressive
Bits/(Pixel*Frame)             : 0.055
Stream size                    : 582 MiB (61%)
Title                          : GOPISAHI
Writing library                : x264 core 157 r2935 545de2f

Audio #1
Format                         : AAC LC
Duration                       : 1 h 30 min
Bit rate                       : 192 kb/s
Channel(s)                     : 6 channels
Channel layout                 : C L R Ls Rs LFE
Sampling rate                  : 48.0 kHz
Frame rate                     : 46.875 FPS (1024 SPF)
Compression mode               : Lossy
Delay relative to video        : -21 ms
Stream size                    : 124 MiB (13%)
Title                          : GOPISAHI
Language                       : Hindi

Audio #2
Format                         : AAC LC
Duration                       : 1 h 30 min
Bit rate                       : 192 kb/s
Channel(s)                     : 6 channels
Channel layout                 : C L R Ls Rs LFE
Sampling rate                  : 48.0 kHz
Frame rate                     : 46.875 FPS (1024 SPF)
Compression mode               : Lossy
Delay relative to video        : -21 ms
Stream size                    : 125 MiB (13%)
Title                          : GOPISAHI
Language                       : English

Audio #3
Format                         : AAC LC
Duration                       : 1 h 30 min
Bit rate                       : 96.0 kb/s
Channel(s)                     : 2 channels
Channel layout                 : L R
Sampling rate                  : 48.0 kHz
Frame rate                     : 46.875 FPS (1024 SPF)
Compression mode               : Lossy
Delay relative to video        : -21 ms
Stream size                    : 62.4 MiB (7%)
Title                          : GOPISAHI
Language                       : Tamil

Audio #4
Format                         : AAC LC
Duration                       : 1 h 30 min
Bit rate                       : 96.0 kb/s
Channel(s)                     : 2 channels
Channel layout                 : L R
Sampling rate                  : 48.0 kHz
Frame rate                     : 46.875 FPS (1024 SPF)
Compression mode               : Lossy
Delay relative to video        : -21 ms
Stream size                    : 62.4 MiB (7%)
Title                          : GOPISAHI
Language                       : Telugu

Text #1
Language                       : English

Text #2
Language                       : Hindi

Text #3
Language                       : Tamil

Text #4
Language                       : Telugu





No comments:

Post a Comment