Search This Blog

Crash 2004 x264 720p Esub BluRay Dual Audio English Hindi GOPISAHI

Crash (2004)


Los Angeles citizens with vastly separate lives collide in interweaving stories of race, loss and redemption.

Director:

Paul Haggis

Writers:

Paul Haggis (story), Paul Haggis (screenplay) | 1 more credit »

7.8/10
403,772

Distributed byLionsgate Films
Release date
  • September 10, 2004 (TIFF)
  • May 6, 2005 (United States)
Running time
112 minutes[1]
CountryUnited States
Germany
LanguageEnglish
Budget$6.5 million[2]
Box office$98.4 million[2]



Crash 2004 x264 720p Esub BluRay Dual Audio English Hindi GOPISAHI

Format                         : Matroska
Format version                 : Version 4
File size                      : 1 009 MiB
Duration                       : 1 h 55 min
Overall bit rate               : 1 226 kb/s
Movie name                     : Crash 2004 GOPISAHI

Video
Format                         : AVC
Format/Info                    : Advanced Video Codec
Format profile                 : [email protected]
Format settings                : CABAC / 5 Ref Frames
Format settings, CABAC         : Yes
Format settings, Reference fra : 5 frames
Codec ID                       : V_MPEG4/ISO/AVC
Duration                       : 1 h 55 min
Bit rate                       : 950 kb/s
Width                          : 1 280 pixels
Height                         : 544 pixels
Display aspect ratio           : 2.35:1
Frame rate mode                : Constant
Frame rate                     : 23.976 (24000/1001) FPS
Original frame rate            : 23.976 (23976/1000) FPS
Color space                    : YUV
Chroma subsampling             : 4:2:0
Bit depth                      : 8 bits
Scan type                      : Progressive
Bits/(Pixel*Frame)             : 0.057
Stream size                    : 781 MiB (77%)
Title                          : GOPISAHI
Writing library                : x264 core 132 r2 76a5c3a

Audio #1
Format                         : AAC LC
Duration                       : 1 h 50 min
Bit rate                       : 184 kb/s
Channel(s)                     : 6 channels
Channel layout                 : C L R Ls Rs LFE
Sampling rate                  : 48.0 kHz
Frame rate                     : 46.875 FPS (1024 SPF)
Compression mode               : Lossy
Delay relative to video        : -83 ms
Stream size                    : 146 MiB (14%)
Title                          : GOPISAHI
Language                       : Hindi

Audio #2
Format                         : AAC LC
Duration                       : 1 h 55 min
Bit rate                       : 96.0 kb/s
Channel(s)                     : 2 channels
Channel layout                 : L R
Sampling rate                  : 48.0 kHz
Frame rate                     : 46.875 FPS (1024 SPF)
Compression mode               : Lossy
Delay relative to video        : -83 ms
Stream size                    : 78.9 MiB (8%)
Title                          : GOPISAHI
Language                       : English

Text
Language                       : English





Format                         : Matroska
Format version                 : Version 4 / Version 2
File size                      : 541 MiB
Duration                       : 1 h 55 min
Overall bit rate               : 658 kb/s
Movie name                     : Crash 2004 GOPISAHI

Video
Format                         : AVC
Codec ID                       : V_MPEG4/ISO/AVC
Duration                       : 1 h 55 min
Bit rate                       : 500 kb/s
Width                          : 1 260 pixels
Height                         : 536 pixels
Display aspect ratio           : 2.35:1
Frame rate mode                : Constant
Frame rate                     : 23.976 (24000/1001) FPS
Stream size                    : 411 MiB (76%)
Writing library                : x264 core 148 r2708 86b7198

Audio #1
Format                         : AAC
Duration                       : 1 h 50 min
Bit rate                       : 82.1 kb/s
Channel(s)                     : 6 channels
Channel positions              : Front: L C R, Side: L R, LFE
Sampling rate                  : 44.1 kHz
Frame rate                     : 43.066 FPS (1024 SPF)
Stream size                    : 65.1 MiB (12%)
Language                       : Hindi

Audio #2
Format                         : AAC
Duration                       : 1 h 55 min
Bit rate                       : 76.3 kb/s
Channel(s)                     : 6 channels
Channel positions              : Front: L C R, Side: L R, LFE
Sampling rate                  : 44.1 kHz
Frame rate                     : 43.066 FPS (1024 SPF)
Stream size                    : 62.8 MiB (12%)
Language                       : English

Text
Language                       : English

TORRENT

MAGNET

https://zupload.me/7416a0155bb4ad6e

No comments:

Post a Comment