Search This Blog

Daybreakers 2009 x264 720p Esub BluRay Dual Audio English Hindi GOPISAHI

Daybreakers (2009)

In the year 2019, a plague has transformed almost every human into vampires. Faced with a dwindling blood supply, the fractured dominant race plots their survival; meanwhile, a researcher works with a covert band of vamps on a way to save humankind.

Directors:

Michael Spierig (as The Spierig Brothers), Peter Spierig (as The Spierig Brothers)

Writers:

Michael Spierig (as The Spierig Brothers), Peter Spierig (as The Spierig Brothers)

6.4/10
117,788

Distributed byLionsgate
Release date
  • 11 September 2009 (TIFF)
  • 8 January 2010 (United States)
  • 4 February 2010 (Australia)
Running time
98 minutes
CountryAustralia
United States
LanguageEnglish
Budget$20 million[1]
Box office$51.4 million[1]




Daybreakers 2009 x264 720p Esub BluRay Dual Audio English Hindi GOPISAHI

Format                         : Matroska
Format version                 : Version 4
File size                      : 788 MiB
Duration                       : 1 h 37 min
Overall bit rate               : 1 127 kb/s
Movie name                     : Daybreakers 2009 GOPISAHI

Video
Format                         : AVC
Format/Info                    : Advanced Video Codec
Format profile                 : [email protected]
Format settings                : CABAC / 12 Ref Frames
Format settings, CABAC         : Yes
Format settings, Reference fra : 12 frames
Codec ID                       : V_MPEG4/ISO/AVC
Duration                       : 1 h 37 min
Bit rate                       : 899 kb/s
Width                          : 1 280 pixels
Height                         : 544 pixels
Display aspect ratio           : 2.35:1
Frame rate mode                : Constant
Frame rate                     : 23.976 (24000/1001) FPS
Color space                    : YUV
Chroma subsampling             : 4:2:0
Bit depth                      : 8 bits
Scan type                      : Progressive
Bits/(Pixel*Frame)             : 0.054
Stream size                    : 629 MiB (80%)
Title                          : GOPISAHI
Writing library                : x264 core 157 r2935 545de2f

Audio #1
Format                         : AAC LC
Duration                       : 1 h 37 min
Bit rate                       : 129 kb/s
Channel(s)                     : 2 channels
Channel layout                 : L R
Sampling rate                  : 48.0 kHz
Frame rate                     : 46.875 FPS (1024 SPF)
Compression mode               : Lossy
Delay relative to video        : -11 ms
Stream size                    : 89.9 MiB (11%)
Title                          : GOPISAHI
Language                       : Hindi

Audio #2
Format                         : AAC LC
Duration                       : 1 h 37 min
Bit rate                       : 96.0 kb/s
Channel(s)                     : 2 channels
Channel layout                 : L R
Sampling rate                  : 48.0 kHz
Frame rate                     : 46.875 FPS (1024 SPF)
Compression mode               : Lossy
Delay relative to video        : -12 ms
Stream size                    : 67.5 MiB (9%)
Title                          : GOPISAHI
Language                       : English

Text
Language                       : English

Menu
00:00:00.000                   : en:Blood Supply
00:04:38.820                   : en:Capture Humans
00:08:23.378                   : en:Starving
00:18:32.778                   : en:Let Me Help
00:24:06.153                   : en:Human Blood
00:33:58.995                   : en:Another Way
00:37:38.506                   : en:Like You Once
00:40:41.731                   : en:Deadly Getaway
00:46:52.977                   : en:The Sun
00:51:30.254                   : en:Staying Focused
00:57:13.847                   : en:Worth The Risk
01:00:20.492                   : en:An Epidemic
01:05:40.937                   : en:Daylight Burn
01:10:43.865                   : en:Surrounded
01:14:22.833                   : en:Only Chance
01:23:53.111                   : en:Let's Do It






No comments:

Post a Comment