Search This Blog

Hyderabad Nawabs 2 2019 x264 720p HD Esub Hindi (Urdu-Telugu) GOPISAHI

Hyderabad Nawabs 2 (2019)


When six families find themselves without a home after their illegal building is razed down by municipal authorities, they decide to take revenge against the realtors who sold them their flats.

Director:

Mama

7.3/10
7
Hyderabad Nawabs 2 2019 x264 720p HD Esub Hindi GOPISAHI

Format                         : Matroska
Format version                 : Version 4
File size                      : 807 MiB
Duration                       : 1 h 53 min
Overall bit rate               : 998 kb/s
Movie name                     : HYDERABAD NAWABS 2 2019 GOPISAHI

Video
Format                         : AVC
Format/Info                    : Advanced Video Codec
Format profile                 : [email protected]
Codec ID                       : V_MPEG4/ISO/AVC
Duration                       : 1 h 53 min
Bit rate                       : 899 kb/s
Width                          : 1 280 pixels
Height                         : 544 pixels
Display aspect ratio           : 2.35:1
Frame rate mode                : Constant
Frame rate                     : 24.000 FPS
Color space                    : YUV
Chroma subsampling             : 4:2:0
Bit depth                      : 8 bits
Scan type                      : Progressive
Bits/(Pixel*Frame)             : 0.054
Stream size                    : 727 MiB (90%)
Title                          : GOPISAHI
Writing library                : x264 core 157 r2935 545de2f

Audio
Format                         : AAC LC
Duration                       : 1 h 53 min
Bit rate                       : 96.0 kb/s
Channel(s)                     : 2 channels
Channel layout                 : L R
Sampling rate                  : 48.0 kHz
Frame rate                     : 46.875 FPS (1024 SPF)
Compression mode               : Lossy
Delay relative to video        : -21 ms
Stream size                    : 78.1 MiB (10%)
Title                          : GOPISAHI
Language                       : Hindi

Text
Language                       : English

















1 comment:

  1. Upload snake eyes (1998) dual audio in 720 blueray

    ReplyDelete