Search This Blog

Jaddi Sardar 2019 x264 720p HD Esub Punjabi GOPISAHI

Jaddi Sardar (2019)

 
After a misunderstanding among their parents, two brothers turn against one another.

Director:

Manbhavan Singh

6.7/10
12 



Jaddi Sardar 2019 x264 720p HD Esub Punjabi GOPISAHI

Format                         : Matroska
Format version                 : Version 4
File size                      : 1.04 GiB
Duration                       : 2 h 29 min
Overall bit rate               : 997 kb/s
Movie name                     : JADDI SARDAR 2019 GOPISAHI

Video
Format                         : AVC
Format/Info                    : Advanced Video Codec
Format profile                 : [email protected]
Format settings                : CABAC / 12 Ref Frames
Format settings, CABAC         : Yes
Format settings, Reference fra : 12 frames
Codec ID                       : V_MPEG4/ISO/AVC
Duration                       : 2 h 29 min
Bit rate                       : 899 kb/s
Width                          : 1 280 pixels
Height                         : 540 pixels
Display aspect ratio           : 2.40:1
Frame rate mode                : Constant
Frame rate                     : 24.000 FPS
Color space                    : YUV
Chroma subsampling             : 4:2:0
Bit depth                      : 8 bits
Scan type                      : Progressive
Bits/(Pixel*Frame)             : 0.054
Stream size                    : 964 MiB (90%)
Title                          : GOPISAHI
Writing library                : x264 core 157 r2935 545de2f
Language                       : Panjabi

Audio
Format                         : AAC LC
Duration                       : 2 h 29 min
Bit rate                       : 96.0 kb/s
Channel(s)                     : 2 channels
Channel layout                 : L R
Sampling rate                  : 48.0 kHz
Frame rate                     : 46.875 FPS (1024 SPF)
Compression mode               : Lossy
Delay relative to video        : -21 ms
Stream size                    : 103 MiB (10%)
Title                          : GOPISAHI
Language                       : Panjabi

Text
Language                       : English












No comments:

Post a Comment