Search This Blog

Kasganj 2019 x264 720p HD Hindi GOPISAHI

Kasganj (2019)

A brooding, alcoholic police officer with a painful past is sent, against his will, to a government guest house high up in the icy cold, mountains of Himachal Pradesh to investigate the ... See full summary »

Director:

Goswami Anurag

Writers:

Goswami Anurag (screenplay), Shashi Bhushan (dialogue) | 1 more credit »



Kasganj 2019 x264 720p HD Hindi GOPISAHI


Format                         : Matroska
Format version                 : Version 4
File size                      : 560 MiB
Duration                       : 1 h 18 min
Overall bit rate               : 997 kb/s
Movie name                     :  Kasganj 2019 GOPISAHI

Video
ID                             : 1
Format                         : AVC
Format/Info                    : Advanced Video Codec
Format profile                 : [email protected]
Format settings                : CABAC / 12 Ref Frames
Format settings, CABAC         : Yes
Format settings, Reference fra : 12 frames
Codec ID                       : V_MPEG4/ISO/AVC
Duration                       : 1 h 18 min
Bit rate                       : 899 kb/s
Width                          : 1 236 pixels
Height                         : 544 pixels
Display aspect ratio           : 2.25:1
Frame rate mode                : Constant
Frame rate                     : 25.000 FPS
Color space                    : YUV
Chroma subsampling             : 4:2:0
Bit depth                      : 8 bits
Scan type                      : Progressive
Bits/(Pixel*Frame)             : 0.053
Stream size                    : 505 MiB (90%)
Title                          : GOPISAHI
Writing library                : x264 core 157 r2935 545de2f

Audio
Format                         : AAC LC
Duration                       : 1 h 18 min
Bit rate                       : 96.0 kb/s
Channel(s)                     : 2 channels
Channel layout                 : L R
Sampling rate                  : 48.0 kHz
Frame rate                     : 46.875 FPS (1024 SPF)
Compression mode               : Lossy
Delay relative to video        : -101 ms
Stream size                    : 54.0 MiB (10%)
Title                          : GOPISAHI
Language                       : Hindi





No comments:

Post a Comment