Search This Blog

Men In Black International 2019 x264 720p Esub BluRay Hindi English Telugu Tamil GOPISAHI

Men in Black: International (2019)

PG-13 | | Action, Adventure, Comedy | 14 June 2019 (USA)

The Men in Black have always protected the Earth from the scum of the universe. In this new adventure, they tackle their biggest threat to date: a mole in the Men in Black organization.

Director:

F. Gary Gray

5.6/10
64,924

Distributed bySony Pictures Releasing[1]
Release date
  • June 11, 2019 (New York City)
  • June 14, 2019 (United States)
Running time
115 minutes[2]
CountryUnited States
LanguageEnglish
Budget$94–110 million[3]
Box office$253.7 million[4]



Men In Black International 2019 x264 720p Esub BluRay Hindi English Telugu Tamil GOPISAHI

Format                         : Matroska
Format version                 : Version 4
File size                      : 1.22 GiB
Duration                       : 1 h 54 min
Overall bit rate               : 1 520 kb/s
Movie name                     : Men In Black International 2019 GOPISAHI

Video
Format                         : AVC
Format/Info                    : Advanced Video Codec
Format profile                 : [email protected]
Format settings                : CABAC / 10 Ref Frames
Format settings, CABAC         : Yes
Format settings, Reference fra : 10 frames
Codec ID                       : V_MPEG4/ISO/AVC
Duration                       : 1 h 54 min
Bit rate                       : 899 kb/s
Width                          : 1 280 pixels
Height                         : 634 pixels
Display aspect ratio           : 2.019
Frame rate mode                : Constant
Frame rate                     : 23.976 (24000/1001) FPS
Color space                    : YUV
Chroma subsampling             : 4:2:0
Bit depth                      : 8 bits
Scan type                      : Progressive
Bits/(Pixel*Frame)             : 0.046
Stream size                    : 738 MiB (59%)
Title                          : GOPISAHI
Writing library                : x264 core 157 r2935 545de2f

Audio #1
Format                         : AAC LC
Duration                       : 1 h 54 min
Bit rate                       : 192 kb/s
Channel(s)                     : 2 channels
Channel layout                 : L R
Sampling rate                  : 48.0 kHz
Frame rate                     : 46.875 FPS (1024 SPF)
Compression mode               : Lossy
Delay relative to video        : -21 ms
Stream size                    : 158 MiB (13%)
Title                          : GOPISAHI
Language                       : Hindi

Audio #2
Format                         : AAC LC
Duration                       : 1 h 54 min
Bit rate                       : 256 kb/s
Channel(s)                     : 8 channels
Channel layout                 : C L R Ls Rs Lb Rb LFE
Sampling rate                  : 48.0 kHz
Frame rate                     : 46.875 FPS (1024 SPF)
Compression mode               : Lossy
Delay relative to video        : -21 ms
Stream size                    : 210 MiB (17%)
Title                          : GOPISAHI
Language                       : English

Audio #3
Format                         : AAC LC
Duration                       : 1 h 54 min
Bit rate                       : 64.3 kb/s
Channel(s)                     : 2 channels
Channel layout                 : L R
Sampling rate                  : 48.0 kHz
Frame rate                     : 46.875 FPS (1024 SPF)
Compression mode               : Lossy
Delay relative to video        : -21 ms
Stream size                    : 52.8 MiB (4%)
Title                          : GOPISAHI
Language                       : Tamil

Audio #4
Format                         : AAC LC
Duration                       : 1 h 54 min
Bit rate                       : 64.3 kb/s
Channel(s)                     : 2 channels
Channel layout                 : L R
Sampling rate                  : 48.0 kHz
Frame rate                     : 46.875 FPS (1024 SPF)
Compression mode               : Lossy
Delay relative to video        : -21 ms
Stream size                    : 52.8 MiB (4%)
Title                          : GOPISAHI
Language                       : Telugu

Text #1
Format                         : PGS
Language                       : English

Text #2
Format                         : PGS
Language                       : English

Menu
00:00:00.000                   : en:Chapter 01
00:07:58.394                   : en:Chapter 02
00:15:32.890                   : en:Chapter 03
00:20:09.583                   : en:Chapter 04
00:27:17.135                   : en:Chapter 05
00:34:29.650                   : en:Chapter 06
00:46:10.267                   : en:Chapter 07
00:50:31.653                   : en:Chapter 08
00:59:01.204                   : en:Chapter 09
01:03:12.914                   : en:Chapter 10
01:10:51.413                   : en:Chapter 11
01:14:35.888                   : en:Chapter 12
01:25:31.376                   : en:Chapter 13
01:28:49.574                   : en:Chapter 14
01:34:29.246                   : en:Chapter 15
01:43:31.830                   : en:Chapter 16







No comments:

Post a Comment