Search This Blog

Paddington 2014 x264 720p Esub BluRay Dual Audio English Hindi GOPISAHI

Paddington (2014)


A young Peruvian bear travels to London in search of a home. Finding himself lost and alone at Paddington Station, he meets the kindly Brown family, who offer him a temporary haven.

Director:

Paul King

Writers:

Paul King, Hamish McColl (screen story by) | 2 more credits »

7.2/10
87,059

Production
company
Distributed byStudioCanal[3]
Release date
  • 28 November 2014
Running time
95 minutes[3]
Country
  • United Kingdom
  • France[4]
LanguageEnglish
Budget
  • €38.5 million
  • $65 million (gross)[5]
  • $54.7 million (net)[5]
Box office$268 million[6]
 

Paddington 2014 x264 720p Esub BluRay Dual Audio English Hindi GOPISAHI

Format                         : Matroska
Format version                 : Version 4
File size                      : 817 MiB
Duration                       : 1 h 35 min
Overall bit rate               : 1 199 kb/s
Movie name                     : Paddington 2014 GOPISAHI

Video
Format                         : AVC
Format/Info                    : Advanced Video Codec
Format profile                 : [email protected]
Format settings                : CABAC / 4 Ref Frames
Format settings, CABAC         : Yes
Format settings, Reference fra : 4 frames
Codec ID                       : V_MPEG4/ISO/AVC
Duration                       : 1 h 35 min
Bit rate                       : 1 006 kb/s
Width                          : 1 280 pixels
Height                         : 536 pixels
Display aspect ratio           : 2.40:1
Frame rate mode                : Constant
Frame rate                     : 23.976 (24000/1001) FPS
Original frame rate            : 23.976 (23976/1000) FPS
Color space                    : YUV
Chroma subsampling             : 4:2:0
Bit depth                      : 8 bits
Scan type                      : Progressive
Bits/(Pixel*Frame)             : 0.061
Stream size                    : 685 MiB (84%)
Title                          : GOPISAHI
Writing library                : x264 core 123 r2189 35cf912

Audio #1
Format                         : AAC LC
Duration                       : 1 h 35 min
Bit rate                       : 96.0 kb/s
Channel(s)                     : 2 channels
Channel layout                 : L R
Sampling rate                  : 48.0 kHz
Frame rate                     : 46.875 FPS (1024 SPF)
Compression mode               : Lossy
Delay relative to video        : -83 ms
Stream size                    : 65.7 MiB (8%)
Title                          : GOPISAHI
Language                       : Hindi

Audio #2
Format                         : AAC LC
Duration                       : 1 h 35 min
Bit rate                       : 93.7 kb/s
Channel(s)                     : 2 channels
Channel layout                 : L R
Sampling rate                  : 48.0 kHz
Frame rate                     : 46.875 FPS (1024 SPF)
Compression mode               : Lossy
Delay relative to video        : -83 ms
Stream size                    : 63.8 MiB (8%)
Title                          : GOPISAHI
Language                       : English

Text #1
Language                       : English

Text #2
Language                       : Hindi





No comments:

Post a Comment