Search This Blog

Spy 2015 x264 720p Esub BluRay Dual Audio English Hindi GOPISAHI

Spy (2015)

 
A desk-bound CIA analyst volunteers to go undercover to infiltrate the world of a deadly arms dealer, and prevent diabolical global disaster.

Director:

Paul Feig

Writer:

Paul Feig

Distributed by20th Century Fox
Release date
  • March 15, 2015 (Sox's)
  • June 5, 2015 (United States)
Running time
120 minutes[1]
CountryUnited States
LanguageEnglish
Budget$65 million[2]
Box office$235.7 million[3]

7.0/10
216,872


Spy 2015 x264 720p Esub BluRay Dual Audio English Hindi GOPISAHI

Format                         : Matroska
Format version                 : Version 4
File size                      : 1 021 MiB
Duration                       : 2 h 10 min
Overall bit rate               : 1 095 kb/s
Movie name                     : Spy 2015 GOPISAHI

Video
Format                         : AVC
Format/Info                    : Advanced Video Codec
Format profile                 : [email protected]
Format settings                : CABAC / 12 Ref Frames
Format settings, CABAC         : Yes
Format settings, Reference fra : 12 frames
Codec ID                       : V_MPEG4/ISO/AVC
Duration                       : 2 h 10 min
Bit rate                       : 899 kb/s
Width                          : 1 280 pixels
Height                         : 534 pixels
Display aspect ratio           : 2.40:1
Frame rate mode                : Constant
Frame rate                     : 23.976 (24000/1001) FPS
Color space                    : YUV
Chroma subsampling             : 4:2:0
Bit depth                      : 8 bits
Scan type                      : Progressive
Bits/(Pixel*Frame)             : 0.055
Stream size                    : 838 MiB (82%)
Title                          : GOPISAHI
Writing library                : x264 core 157 r2935 545de2f

Audio #1
Format                         : AAC LC
Duration                       : 2 h 10 min
Bit rate                       : 96.0 kb/s
Channel(s)                     : 2 channels
Channel layout                 : L R
Sampling rate                  : 48.0 kHz
Frame rate                     : 46.875 FPS (1024 SPF)
Compression mode               : Lossy
Delay relative to video        : -21 ms
Stream size                    : 90.0 MiB (9%)
Title                          : GOPISAHI
Language                       : Hindi

Audio #2
Format                         : AAC LC
Duration                       : 2 h 10 min
Bit rate                       : 96.0 kb/s
Channel(s)                     : 2 channels
Channel layout                 : L R
Sampling rate                  : 48.0 kHz
Frame rate                     : 46.875 FPS (1024 SPF)
Compression mode               : Lossy
Delay relative to video        : -21 ms
Stream size                    : 89.8 MiB (9%)
Title                          : GOPISAHI
Language                       : English

Text #1
Language                       : English

Text #2
Language                       : Hindi








1 comment:

  1. Happy Dussera Dear Gopisahi Team😘😘😘😘😘😘

    ReplyDelete