Search This Blog

The Past 2018 x264 720p HD Esub Hindi GOPISAHI

The Past (2018)



The movie chronicles the life of Simran, a young and upcoming novelist, who, one day, receives a call from Yuvraj, an owner of a publishing house. He asks Simran to write a book on a plot ... See full summary »

Director:

Gagan Puri

Writer:

Sandeep Rale
6.9/10
61

Distributed byN M Entertainment
Release date
  • 11 May 2018
Running time
122 minutes
CountryIndia
LanguageHindi
Budget3 crore[citation needed]


The Past 2018 x264 720p HD Esub Hindi GOPISAHI

Format                         : Matroska
Format version                 : Version 4
File size                      : 855 MiB
Duration                       : 2 h 1 min
Overall bit rate               : 988 kb/s
Movie name                     : The Past 2018 GOPISAHI

Video
Format                         : AVC
Format/Info                    : Advanced Video Codec
Format profile                 : [email protected]
Format settings                : CABAC / 12 Ref Frames
Format settings, CABAC         : Yes
Format settings, Reference fra : 12 frames
Codec ID                       : V_MPEG4/ISO/AVC
Duration                       : 1 h 59 min
Bit rate                       : 899 kb/s
Width                          : 1 280 pixels
Height                         : 540 pixels
Display aspect ratio           : 2.40:1
Frame rate mode                : Constant
Frame rate                     : 24.000 FPS
Color space                    : YUV
Chroma subsampling             : 4:2:0
Bit depth                      : 8 bits
Scan type                      : Progressive
Bits/(Pixel*Frame)             : 0.054
Stream size                    : 771 MiB (90%)
Title                          : GOPISAHI
Writing library                : x264 core 157 r2935 545de2f

Audio
Format                         : AAC LC
Duration                       : 1 h 59 min
Bit rate                       : 96.0 kb/s
Channel(s)                     : 2 channels
Channel layout                 : L R
Sampling rate                  : 48.0 kHz
Frame rate                     : 46.875 FPS (1024 SPF)
Compression mode               : Lossy
Delay relative to video        : -21 ms
Stream size                    : 82.2 MiB (10%)
Title                          : GOPISAHI
Language                       : Hindi

Text
Language                       : English

















No comments:

Post a Comment