Search This Blog

The Secret Life Of Pets 2 2019 x264 720p Esub BluRay Dual Audio English 5.1 Hindi 7.1 GOPISAHI

The Secret Life of Pets 2 (2019)


Continuing the story of Max and his pet friends, following their secret lives after their owners leave them for work or school each day.

Directors:

Chris Renaud, Jonathan del Val (co-director) (as Jonathan Del Val)

Writer:

Brian Lynch

6.5/10
25,488

Distributed byUniversal Pictures[2]
Release date
  • May 24, 2019 (United Kingdom)
  • June 7, 2019 (United States)
Running time
86 minutes[3]
CountryUnited States
LanguageEnglish
Budget$80 million[4]
Box office$429.4 million[4][5]






The Secret Life Of Pets 2 2019 x264 720p Esub BluRay Dual Audio English 5.1 Hindi 7.1 GOPISAHI

Format                         : Matroska
Format version                 : Version 4
File size                      : 836 MiB
Duration                       : 1 h 26 min
Overall bit rate               : 1 359 kb/s
Movie name                     : The Secret Life of Pets 2 2019 GOPISAHI

Video
Format                         : AVC
Format/Info                    : Advanced Video Codec
Format profile                 : [email protected]
Format settings                : CABAC / 9 Ref Frames
Format settings, CABAC         : Yes
Format settings, Reference fra : 9 frames
Codec ID                       : V_MPEG4/ISO/AVC
Duration                       : 1 h 26 min
Bit rate                       : 899 kb/s
Width                          : 1 280 pixels
Height                         : 690 pixels
Display aspect ratio           : 1.85:1
Frame rate mode                : Constant
Frame rate                     : 23.976 (24000/1001) FPS
Color space                    : YUV
Chroma subsampling             : 4:2:0
Bit depth                      : 8 bits
Scan type                      : Progressive
Bits/(Pixel*Frame)             : 0.042
Stream size                    : 553 MiB (66%)
Title                          : GOPISAHI
Writing library                : x264 core 157 r2935 545de2f

Audio #1
Format                         : AAC LC
Duration                       : 1 h 26 min
Bit rate                       : 256 kb/s
Channel(s)                     : 8 channels
Channel layout                 : C L R Ls Rs Lb Rb LFE
Sampling rate                  : 48.0 kHz
Frame rate                     : 46.875 FPS (1024 SPF)
Compression mode               : Lossy
Delay relative to video        : -21 ms
Stream size                    : 158 MiB (19%)
Title                          : GOPISAHI
Language                       : Hindi

Audio #2
Format                         : AAC LC
Duration                       : 1 h 26 min
Bit rate                       : 192 kb/s
Channel(s)                     : 6 channels
Channel layout                 : C L R Ls Rs LFE
Sampling rate                  : 48.0 kHz
Frame rate                     : 46.875 FPS (1024 SPF)
Compression mode               : Lossy
Delay relative to video        : -21 ms
Stream size                    : 118 MiB (14%)
Title                          : GOPISAHI
Language                       : English

Text #1
Language                       : English

Text #2
Format                         : PGS
Language                       : Hindi

Text #3
Format                         : PGS
Language                       : Hindi



1 comment:

  1. Please upload Pearl harbor (2001)dual audio in 720 blueray then Snake eyes(1998)dual audio in 720 blueray and Ramayana the legend of prince Rama (1992)dual audio in 720 blueray

    ReplyDelete